<?xml version="1.0" standalone="no"?>
<!DOCTYPE svg PUBLIC "-//W3C//DTD SVG 1.1//EN" "http://www.w3.org/Graphics/SVG/1.1/DTD/svg11.dtd" >
<svg xmlns="http://www.w3.org/2000/svg" xmlns:xlink="http://www.w3.org/1999/xlink" version="1.1">
<metadata>
Created by FontForge 20190801 at Mon Sep 22 18:26:27 2014
 By Jimmy Wärting
Copyright (c) 2014 by Daniel Hernandez &#38; Miguel Hernandez. All rights reserved.
</metadata>
<defs>
<font id="TextaAlt-Bold" horiz-adv-x="522" >
  <font-face 
    font-family="Texta Alt Bold"
    font-weight="700"
    font-stretch="normal"
    units-per-em="1000"
    panose-1="2 0 0 0 0 0 0 0 0 0"
    ascent="750"
    descent="-250"
    x-height="420"
    cap-height="600"
    bbox="-26 -192 983 813"
    underline-thickness="50"
    underline-position="-100"
    unicode-range="U+000D-25CA"
  />
<missing-glyph horiz-adv-x="564" 
 />
    <glyph glyph-name=".notdef" horiz-adv-x="564" 
 />
    <glyph glyph-name="A" unicode="A" horiz-adv-x="596" 
d="M348 600l246 -600h-104l-49 123h-286l-48 -123h-105l246 600h100zM298 485l-110 -278h220z" />
    <glyph glyph-name="AE" unicode="&#xc6;" horiz-adv-x="887" 
d="M-10 0l411 600h448v-88h-335v-168h278v-84h-278v-172h335v-88h-434v126h-223l-83 -126h-119zM410 454l-161 -243h166v243h-5z" />
    <glyph glyph-name="Aacute" unicode="&#xc1;" horiz-adv-x="596" 
d="M348 600l246 -600h-104l-49 123h-286l-48 -123h-105l246 600h100zM298 485l-110 -278h220zM432 767l-99 -132h-67l52 145z" />
    <glyph glyph-name="acute" unicode="&#xb4;" horiz-adv-x="279" 
d="M219 629l-99 -132h-67l52 145z" />
    <glyph glyph-name="Acircumflex" unicode="&#xc2;" horiz-adv-x="596" 
d="M348 600l246 -600h-104l-49 123h-286l-48 -123h-105l246 600h100zM298 485l-110 -278h220zM348 655l-49 62l-50 -62h-76l87 121h77l88 -121h-77z" />
    <glyph glyph-name="circumflex" unicode="&#x2c6;" horiz-adv-x="371" 
d="M241 655l-49 62l-50 -62h-76l87 121h77l88 -121h-77z" />
    <glyph glyph-name="Adieresis" unicode="&#xc4;" horiz-adv-x="596" 
d="M348 600l246 -600h-104l-49 123h-286l-48 -123h-105l246 600h100zM298 485l-110 -278h220zM158 710c0 29 26 55 54 55c29 0 55 -26 55 -55s-26 -55 -55 -55c-28 0 -54 26 -54 55zM329 710c0 29 25 55 53 55c29 0 54 -26 54 -55s-25 -55 -54 -55c-28 0 -53 26 -53 55z" />
    <glyph glyph-name="dieresis" unicode="&#xa8;" horiz-adv-x="455" 
d="M86 710c0 29 26 55 54 55c29 0 55 -26 55 -55s-26 -55 -55 -55c-28 0 -54 26 -54 55zM257 710c0 29 25 55 53 55c29 0 54 -26 54 -55s-25 -55 -54 -55c-28 0 -53 26 -53 55z" />
    <glyph glyph-name="Agrave" unicode="&#xc0;" horiz-adv-x="596" 
d="M348 600l246 -600h-104l-49 123h-286l-48 -123h-105l246 600h100zM298 485l-110 -278h220zM262 635l-91 134l113 17l45 -151h-67z" />
    <glyph glyph-name="grave" unicode="`" horiz-adv-x="279" 
d="M139 497l-91 134l113 17l45 -151h-67z" />
    <glyph glyph-name="Aring" unicode="&#xc5;" horiz-adv-x="596" 
d="M348 600l246 -600h-104l-49 123h-286l-48 -123h-105l246 600h100zM298 485l-110 -278h220zM190 704c0 52 41 88 109 88c66 0 107 -36 107 -88s-41 -89 -107 -89c-68 0 -109 37 -109 89zM349 704c0 25 -19 39 -50 39c-32 0 -52 -14 -52 -39c0 -26 20 -39 52 -39
c31 0 50 13 50 39z" />
    <glyph glyph-name="ring" unicode="&#x2da;" horiz-adv-x="288" 
d="M36 704c0 52 41 88 109 88c66 0 107 -36 107 -88s-41 -89 -107 -89c-68 0 -109 37 -109 89zM195 704c0 25 -19 39 -50 39c-32 0 -52 -14 -52 -39c0 -26 20 -39 52 -39c31 0 50 13 50 39z" />
    <glyph glyph-name="Atilde" unicode="&#xc3;" horiz-adv-x="596" 
d="M348 600l246 -600h-104l-49 123h-286l-48 -123h-105l246 600h100zM298 485l-110 -278h220zM376 657c-61 0 -98 50 -137 50c-25 0 -33 -17 -39 -36l-4 -16l-69 7l5 30c10 50 37 90 95 90c60 0 97 -50 137 -50c26 0 35 16 40 37l3 15l69 -6l-5 -30c-8 -51 -37 -91 -95 -91z
" />
    <glyph glyph-name="tilde" unicode="&#x2dc;" horiz-adv-x="485" 
d="M313 657c-61 0 -98 50 -137 50c-25 0 -33 -17 -39 -36l-4 -16l-69 7l5 30c10 50 37 90 95 90c60 0 97 -50 137 -50c26 0 35 16 40 37l3 15l69 -6l-5 -30c-8 -51 -37 -91 -95 -91z" />
    <glyph glyph-name="B" unicode="B" horiz-adv-x="602" 
d="M562 171c0 -113 -84 -171 -216 -171h-272v600h263c133 0 207 -58 207 -163c0 -60 -33 -106 -84 -128v-4c61 -17 102 -65 102 -134zM356 262h-183v-174h175c62 0 110 32 110 88c0 51 -45 83 -102 86zM440 427c0 57 -40 85 -104 85h-163v-168h161c65 0 106 34 106 83z" />
    <glyph glyph-name="C" unicode="C" horiz-adv-x="560" 
d="M484 138l57 -76s-64 -76 -202 -76c-184 0 -303 140 -303 313c0 175 119 314 303 314c138 0 202 -75 202 -75l-57 -77s-52 58 -143 58c-119 0 -202 -96 -202 -220c0 -123 83 -218 202 -218c91 0 143 57 143 57z" />
    <glyph glyph-name="CR" unicode="&#xd;" horiz-adv-x="105" 
 />
    <glyph glyph-name="Ccedilla" unicode="&#xc7;" horiz-adv-x="560" 
d="M293 -69l-17 20l19 38c-159 20 -259 151 -259 310c0 175 119 314 303 314c138 0 202 -75 202 -75l-57 -77s-52 58 -143 58c-119 0 -202 -96 -202 -220c0 -123 83 -218 202 -218c91 0 143 57 143 57l57 -76s-63 -74 -198 -76l-7 -17c36 0 64 -23 64 -64
c0 -43 -30 -73 -83 -73c-55 0 -80 30 -80 30l24 36c7 -5 25 -20 53 -20c24 0 38 11 38 29s-15 27 -36 27c-15 0 -23 -3 -23 -3z" />
    <glyph glyph-name="cedilla" unicode="&#xb8;" horiz-adv-x="206" 
d="M73 -69l-17 20l26 52h48l-14 -34c36 0 64 -23 64 -64c0 -43 -30 -73 -83 -73c-55 0 -80 30 -80 30l24 36c7 -5 25 -20 53 -20c24 0 38 11 38 29s-15 27 -36 27c-15 0 -23 -3 -23 -3z" />
    <glyph glyph-name="D" unicode="D" horiz-adv-x="633" 
d="M595 300c0 -179 -122 -300 -309 -300h-212v600h212c187 0 309 -121 309 -300zM280 512h-107v-424h107c120 0 214 79 214 212c0 136 -94 212 -214 212z" />
    <glyph glyph-name="Delta" unicode="&#x2206;" horiz-adv-x="640" 
d="M26 0v18l285 582h18l286 -582v-18h-589zM473 86l-151 338h-5l-151 -338h307z" />
    <glyph glyph-name="E" unicode="E" horiz-adv-x="540" 
d="M452 346v-84h-279v-174h328v-88h-427v600h427v-88h-328v-166h279z" />
    <glyph glyph-name="Eacute" unicode="&#xc9;" horiz-adv-x="540" 
d="M423 767l-99 -132h-67l52 145zM452 346v-84h-279v-174h328v-88h-427v600h427v-88h-328v-166h279z" />
    <glyph glyph-name="Ecircumflex" unicode="&#xca;" horiz-adv-x="540" 
d="M346 655l-49 62l-50 -62h-76l87 121h77l88 -121h-77zM452 346v-84h-279v-174h328v-88h-427v600h427v-88h-328v-166h279z" />
    <glyph glyph-name="Edieresis" unicode="&#xcb;" horiz-adv-x="540" 
d="M155 710c0 29 26 55 54 55c29 0 55 -26 55 -55s-26 -55 -55 -55c-28 0 -54 26 -54 55zM326 710c0 29 25 55 53 55c29 0 54 -26 54 -55s-25 -55 -54 -55c-28 0 -53 26 -53 55zM452 346v-84h-279v-174h328v-88h-427v600h427v-88h-328v-166h279z" />
    <glyph glyph-name="Egrave" unicode="&#xc8;" horiz-adv-x="540" 
d="M452 346v-84h-279v-174h328v-88h-427v600h427v-88h-328v-166h279zM267 635l-91 134l113 17l45 -151h-67z" />
    <glyph glyph-name="Eth" unicode="&#xd0;" horiz-adv-x="634" 
d="M21 259v89h54v252h212c187 0 309 -121 309 -300s-122 -300 -309 -300h-212v259h-54zM281 512h-107v-164h154v-89h-154v-171h107c120 0 214 79 214 212c0 136 -94 212 -214 212z" />
    <glyph glyph-name="Euro" unicode="&#x20ac;" horiz-adv-x="578" 
d="M401 267v-71h-181c21 -70 69 -115 150 -115c75 0 117 53 117 53l53 -74s-54 -72 -171 -72c-141 0 -224 90 -254 208h-78v71h67c-1 11 -1 22 -1 34s0 25 1 38h-67v71h79c31 115 113 203 253 203c117 0 171 -72 171 -72l-53 -76s-42 53 -117 53c-79 0 -127 -42 -149 -108
h180v-71h-194c-1 -13 -1 -25 -1 -38c0 -12 0 -23 1 -34h194z" />
    <glyph glyph-name="F" unicode="F" horiz-adv-x="533" 
d="M452 345v-84h-279v-261h-99v600h429v-88h-330v-167h279z" />
    <glyph glyph-name="G" unicode="G" horiz-adv-x="639" 
d="M506 252v3h-183v84h288v-59c0 -178 -103 -294 -275 -294c-186 0 -299 140 -299 313c0 175 117 314 302 314c149 0 214 -77 214 -77l-58 -76s-56 59 -156 59c-121 0 -200 -96 -200 -220c0 -123 77 -218 197 -218c105 0 170 70 170 171z" />
    <glyph glyph-name="H" unicode="H" horiz-adv-x="650" 
d="M576 600v-600h-99v255h-304v-255h-99v600h99v-261h304v261h99z" />
    <glyph glyph-name="I" unicode="I" horiz-adv-x="248" 
d="M173 600v-600h-99v600h99z" />
    <glyph glyph-name="Iacute" unicode="&#xcd;" horiz-adv-x="248" 
d="M173 600v-600h-99v600h99zM257 767l-99 -132h-67l52 145z" />
    <glyph glyph-name="Icircumflex" unicode="&#xce;" horiz-adv-x="248" 
d="M173 600v-600h-99v600h99zM175 655l-49 62l-50 -62h-76l87 121h77l88 -121h-77z" />
    <glyph glyph-name="Idieresis" unicode="&#xcf;" horiz-adv-x="248" 
d="M173 600v-600h-99v600h99zM-15 710c0 29 26 55 54 55c29 0 55 -26 55 -55s-26 -55 -55 -55c-28 0 -54 26 -54 55zM156 710c0 29 25 55 53 55c29 0 54 -26 54 -55s-25 -55 -54 -55c-28 0 -53 26 -53 55z" />
    <glyph glyph-name="Igrave" unicode="&#xcc;" horiz-adv-x="248" 
d="M173 600v-600h-99v600h99zM87 635l-91 134l113 17l45 -151h-67z" />
    <glyph glyph-name="J" unicode="J" horiz-adv-x="444" 
d="M15 38l47 78s41 -34 99 -34c76 0 115 40 116 136v382h99v-401c-1 -126 -68 -213 -209 -213c-101 0 -151 51 -152 52z" />
    <glyph glyph-name="K" unicode="K" horiz-adv-x="587" 
d="M173 600v-301l282 301h117v-12l-224 -240l227 -335v-13h-109s-124 183 -186 275l-107 -114v-161h-99v600h99z" />
    <glyph glyph-name="L" unicode="L" horiz-adv-x="494" 
d="M468 0h-394v600h99v-512h295v-88z" />
    <glyph glyph-name="Lslash" unicode="&#x141;" horiz-adv-x="498" 
d="M16 216v94l62 38v252h99v-192l135 83v-94l-135 -83v-226h295v-88h-394v254z" />
    <glyph glyph-name="M" unicode="M" horiz-adv-x="726" 
d="M554 0v418l-173 -226h-36l-172 223v-415h-99v600h76l213 -280l214 280h74l1 -600h-98z" />
    <glyph glyph-name="N" unicode="N" horiz-adv-x="666" 
d="M592 600v-600h-74l-345 426v-426h-99v600h75l344 -424v424h99z" />
    <glyph glyph-name="NUL" horiz-adv-x="0" 
 />
    <glyph glyph-name="NUL" horiz-adv-x="0" 
 />
    <glyph glyph-name="Ntilde" unicode="&#xd1;" horiz-adv-x="666" 
d="M592 600v-600h-74l-345 426v-426h-99v600h75l344 -424v424h99zM411 658c-61 0 -98 50 -137 50c-25 0 -33 -17 -39 -36l-4 -16l-69 7l5 30c10 50 37 90 95 90c60 0 97 -50 137 -50c26 0 35 16 40 37l3 15l69 -6l-5 -30c-8 -51 -37 -91 -95 -91z" />
    <glyph glyph-name="O" unicode="O" horiz-adv-x="675" 
d="M337 -14c-181 0 -300 140 -300 313c0 175 119 314 300 314c182 0 301 -139 301 -314c0 -173 -119 -313 -301 -313zM337 82c119 0 200 94 200 217c0 124 -81 219 -200 219c-118 0 -198 -95 -198 -219c0 -123 80 -217 198 -217z" />
    <glyph glyph-name="OE" unicode="&#x152;" horiz-adv-x="1022" 
d="M337 -14c-181 0 -300 140 -300 313c0 175 119 314 300 314c91 0 166 -35 219 -92v79h427v-88h-328v-166h279v-84h-279v-174h328v-88h-427v77c-53 -56 -128 -91 -219 -91zM337 82c119 0 200 94 200 217c0 124 -81 219 -200 219c-118 0 -198 -95 -198 -219
c0 -123 80 -217 198 -217z" />
    <glyph glyph-name="Oacute" unicode="&#xd3;" horiz-adv-x="675" 
d="M466 787l-99 -132h-67l52 145zM337 -14c-181 0 -300 140 -300 313c0 175 119 314 300 314c182 0 301 -139 301 -314c0 -173 -119 -313 -301 -313zM337 82c119 0 200 94 200 217c0 124 -81 219 -200 219c-118 0 -198 -95 -198 -219c0 -123 80 -217 198 -217z" />
    <glyph glyph-name="Ocircumflex" unicode="&#xd4;" horiz-adv-x="675" 
d="M388 655l-49 62l-50 -62h-76l87 121h77l88 -121h-77zM337 -14c-181 0 -300 140 -300 313c0 175 119 314 300 314c182 0 301 -139 301 -314c0 -173 -119 -313 -301 -313zM337 82c119 0 200 94 200 217c0 124 -81 219 -200 219c-118 0 -198 -95 -198 -219
c0 -123 80 -217 198 -217z" />
    <glyph glyph-name="Odieresis" unicode="&#xd6;" horiz-adv-x="675" 
d="M198 710c0 29 26 55 54 55c29 0 55 -26 55 -55s-26 -55 -55 -55c-28 0 -54 26 -54 55zM369 710c0 29 25 55 53 55c29 0 54 -26 54 -55s-25 -55 -54 -55c-28 0 -53 26 -53 55zM337 -14c-181 0 -300 140 -300 313c0 175 119 314 300 314c182 0 301 -139 301 -314
c0 -173 -119 -313 -301 -313zM337 82c119 0 200 94 200 217c0 124 -81 219 -200 219c-118 0 -198 -95 -198 -219c0 -123 80 -217 198 -217z" />
    <glyph glyph-name="Ograve" unicode="&#xd2;" horiz-adv-x="675" 
d="M337 -14c-181 0 -300 140 -300 313c0 175 119 314 300 314c182 0 301 -139 301 -314c0 -173 -119 -313 -301 -313zM337 82c119 0 200 94 200 217c0 124 -81 219 -200 219c-118 0 -198 -95 -198 -219c0 -123 80 -217 198 -217zM304 655l-91 134l113 17l45 -151h-67z" />
    <glyph glyph-name="Omega" unicode="&#x2126;" horiz-adv-x="716" 
d="M49 0v86h122c-79 50 -120 138 -120 227c0 160 110 300 307 300s308 -140 308 -300c0 -89 -42 -177 -121 -227h122v-86h-274v89c100 9 174 106 174 215c0 118 -82 214 -209 214c-126 0 -208 -96 -208 -214c0 -109 74 -206 173 -215v-89h-274z" />
    <glyph glyph-name="Oslash" unicode="&#xd8;" horiz-adv-x="685" 
d="M342 -14c-76 0 -140 24 -190 65l-50 -51h-105l103 106c-37 53 -58 120 -58 193c0 175 119 314 300 314c75 0 139 -24 189 -64l50 51h104l-102 -105c39 -54 60 -122 60 -196c0 -173 -119 -313 -301 -313zM342 82c119 0 200 94 200 217c0 45 -11 87 -31 122l-290 -298
c33 -26 74 -41 121 -41zM144 299c0 -44 10 -85 29 -118l289 297c-33 25 -74 40 -120 40c-118 0 -198 -95 -198 -219z" />
    <glyph glyph-name="Otilde" unicode="&#xd5;" horiz-adv-x="675" 
d="M337 -14c-181 0 -300 140 -300 313c0 175 119 314 300 314c182 0 301 -139 301 -314c0 -173 -119 -313 -301 -313zM337 82c119 0 200 94 200 217c0 124 -81 219 -200 219c-118 0 -198 -95 -198 -219c0 -123 80 -217 198 -217zM412 657c-61 0 -98 50 -137 50
c-25 0 -33 -17 -39 -36l-4 -16l-69 7l5 30c10 50 37 90 95 90c60 0 97 -50 137 -50c26 0 35 16 40 37l3 15l69 -6l-5 -30c-8 -51 -37 -91 -95 -91z" />
    <glyph glyph-name="P" unicode="P" horiz-adv-x="577" 
d="M74 0v600h247c141 0 230 -76 230 -201c0 -131 -92 -205 -232 -205h-146v-194h-99zM449 398c0 77 -53 114 -133 114h-143v-231h144c79 0 132 36 132 117z" />
    <glyph glyph-name="Q" unicode="Q" horiz-adv-x="675" 
d="M337 -14c-181 0 -300 140 -300 313c0 175 119 314 300 314c182 0 301 -139 301 -314c0 -121 -58 -226 -155 -278l78 -134h-110l-58 104c-18 -3 -37 -5 -56 -5zM337 82c119 0 200 94 200 217c0 124 -81 219 -200 219c-118 0 -198 -95 -198 -219c0 -123 80 -217 198 -217z
" />
    <glyph glyph-name="R" unicode="R" horiz-adv-x="599" 
d="M74 600h247c141 0 230 -76 230 -201c0 -93 -50 -156 -127 -185v-5l144 -195v-14h-109l-143 198h-143v-198h-99v600zM448 398c0 77 -52 114 -132 114h-143v-226h149c73 0 126 36 126 112z" />
    <glyph glyph-name="S" unicode="S" horiz-adv-x="518" 
d="M35 61l54 75s70 -58 170 -58c81 0 116 34 116 83c0 46 -28 69 -136 102c-134 40 -199 85 -199 179c0 103 78 171 220 171c149 0 209 -61 209 -61l-54 -81s-57 50 -155 50c-68 0 -111 -27 -111 -75c0 -41 32 -61 133 -91c145 -41 203 -94 203 -187
c0 -102 -73 -182 -223 -182c-154 0 -227 75 -227 75z" />
    <glyph glyph-name="Scaron" unicode="&#x160;" horiz-adv-x="518" 
d="M207 777l49 -62l50 62h76l-79 -109h-92l-81 109h77zM35 61l54 75s70 -58 170 -58c81 0 116 34 116 83c0 46 -28 69 -136 102c-134 40 -199 85 -199 179c0 103 78 171 220 171c149 0 209 -61 209 -61l-54 -81s-57 50 -155 50c-68 0 -111 -27 -111 -75
c0 -41 32 -61 133 -91c145 -41 203 -94 203 -187c0 -102 -73 -182 -223 -182c-154 0 -227 75 -227 75z" />
    <glyph glyph-name="caron" unicode="&#x2c7;" horiz-adv-x="325" 
d="M111 777l49 -62l50 62h76l-79 -109h-92l-81 109h77z" />
    <glyph glyph-name="T" unicode="T" horiz-adv-x="523" 
d="M24 512v88h475v-88h-188v-512h-99v512h-188z" />
    <glyph glyph-name="Thorn" unicode="&#xde;" horiz-adv-x="581" 
d="M173 600v-94h152c144 0 232 -73 232 -204c0 -138 -96 -211 -238 -211h-146v-91h-99v600h99zM455 299c0 79 -55 118 -137 118h-145v-239h145c83 0 137 36 137 121z" />
    <glyph glyph-name="U" unicode="U" horiz-adv-x="634" 
d="M317 -14c-156 0 -251 112 -251 268v346h99v-346c0 -99 51 -173 152 -173c103 0 152 74 152 173v346h99v-346c0 -156 -92 -268 -251 -268z" />
    <glyph glyph-name="Uacute" unicode="&#xda;" horiz-adv-x="634" 
d="M446 767l-99 -132h-67l52 145zM317 -14c-156 0 -251 112 -251 268v346h99v-346c0 -99 51 -173 152 -173c103 0 152 74 152 173v346h99v-346c0 -156 -92 -268 -251 -268z" />
    <glyph glyph-name="Ucircumflex" unicode="&#xdb;" horiz-adv-x="634" 
d="M368 634l-49 62l-50 -62h-76l87 121h77l88 -121h-77zM317 -14c-156 0 -251 112 -251 268v346h99v-346c0 -99 51 -173 152 -173c103 0 152 74 152 173v346h99v-346c0 -156 -92 -268 -251 -268z" />
    <glyph glyph-name="Udieresis" unicode="&#xdc;" horiz-adv-x="634" 
d="M179 710c0 29 26 55 54 55c29 0 55 -26 55 -55s-26 -55 -55 -55c-28 0 -54 26 -54 55zM350 710c0 29 25 55 53 55c29 0 54 -26 54 -55s-25 -55 -54 -55c-28 0 -53 26 -53 55zM317 -14c-156 0 -251 112 -251 268v346h99v-346c0 -99 51 -173 152 -173c103 0 152 74 152 173
v346h99v-346c0 -156 -92 -268 -251 -268z" />
    <glyph glyph-name="Ugrave" unicode="&#xd9;" horiz-adv-x="634" 
d="M317 -14c-156 0 -251 112 -251 268v346h99v-346c0 -99 51 -173 152 -173c103 0 152 74 152 173v346h99v-346c0 -156 -92 -268 -251 -268zM282 635l-91 134l113 17l45 -151h-67z" />
    <glyph glyph-name="V" unicode="V" horiz-adv-x="596" 
d="M248 0l-246 600h105l191 -486l192 486h104l-246 -600h-100z" />
    <glyph glyph-name="W" unicode="W" horiz-adv-x="803" 
d="M522 0l-121 432l-120 -432h-77l-190 600h105l122 -425l118 425h83l119 -426l122 426h107l-191 -600h-77z" />
    <glyph glyph-name="X" unicode="X" horiz-adv-x="551" 
d="M534 600l-185 -292l191 -308h-120l-121 206l-24 45l-23 -45l-120 -206h-119l188 308l-183 292h120l117 -196l21 -45l22 45l117 196h119z" />
    <glyph glyph-name="Y" unicode="Y" horiz-adv-x="537" 
d="M291 365l134 235h110l-217 -370v-230h-99v230l-217 370h111l134 -235l22 -49z" />
    <glyph glyph-name="Yacute" unicode="&#xdd;" horiz-adv-x="537" 
d="M291 365l134 235h110l-217 -370v-230h-99v230l-217 370h111l134 -235l22 -49zM400 800l-99 -132h-67l52 145z" />
    <glyph glyph-name="Ydieresis" unicode="&#x178;" horiz-adv-x="537" 
d="M291 365l134 235h110l-217 -370v-230h-99v230l-217 370h111l134 -235l22 -49zM131 710c0 29 26 55 54 55c29 0 55 -26 55 -55s-26 -55 -55 -55c-28 0 -54 26 -54 55zM302 710c0 29 25 55 53 55c29 0 54 -26 54 -55s-25 -55 -54 -55c-28 0 -53 26 -53 55z" />
    <glyph glyph-name="Z" unicode="Z" horiz-adv-x="534" 
d="M30 0v71l339 441h-328v88h460v-73l-333 -439h328v-88h-466z" />
    <glyph glyph-name="Zcaron" unicode="&#x17d;" horiz-adv-x="534" 
d="M213 777l49 -62l50 62h76l-79 -109h-92l-81 109h77zM30 0v71l339 441h-328v88h460v-73l-333 -439h328v-88h-466z" />
    <glyph glyph-name="ae" unicode="&#xe6;" horiz-adv-x="740" 
d="M654 106l35 -66s-48 -51 -154 -51c-73 0 -131 26 -169 69c-34 -41 -90 -68 -169 -68c-117 0 -171 59 -171 131c0 82 58 137 188 137c44 0 78 -7 101 -14v15c0 62 -41 91 -109 91c-62 0 -113 -34 -113 -34l-34 76s64 38 158 38c74 0 125 -23 155 -62c36 39 86 62 147 62
c122 0 191 -87 191 -209c0 -9 -1 -26 -1 -26h-298c6 -85 58 -126 130 -126c71 0 113 37 113 37zM206 60c71 0 109 46 109 99v22c-17 7 -47 16 -92 16c-71 0 -101 -27 -101 -71c0 -38 27 -66 84 -66zM517 354c-54 0 -91 -31 -102 -94h198c-7 61 -40 94 -96 94z" />
    <glyph glyph-name="ampersand" unicode="&#x26;" horiz-adv-x="614" 
d="M471 299l93 -22c-11 -61 -32 -116 -64 -162l117 -115h-138l-45 45c-46 -35 -102 -55 -166 -55c-150 0 -223 74 -223 170c0 83 56 128 120 162l-13 14c-37 38 -56 80 -56 126c0 83 66 151 173 151c106 0 172 -61 172 -145c0 -89 -61 -133 -127 -168l119 -118
c18 33 31 73 38 117zM267 74c39 0 74 13 105 36l-143 147c-44 -24 -76 -51 -76 -95c0 -53 49 -88 114 -88zM195 458c0 -32 15 -54 48 -87l8 -8c52 25 93 51 93 95s-28 73 -75 73c-45 0 -74 -29 -74 -73z" />
    <glyph glyph-name="approxequal" unicode="&#x2248;" horiz-adv-x="498" 
d="M328 163c-64 0 -102 43 -141 43c-24 0 -33 -15 -38 -31l-4 -14l-85 6l7 38c10 48 43 84 106 84c64 0 101 -43 141 -43c24 0 33 15 38 31l4 14l84 -6l-6 -39c-10 -47 -43 -83 -106 -83zM328 357c-64 0 -102 43 -141 43c-24 0 -33 -15 -38 -31l-4 -14l-85 6l7 39
c10 47 43 83 106 83c64 0 101 -43 141 -43c24 0 33 15 38 31l4 14l84 -6l-6 -38c-10 -48 -43 -84 -106 -84z" />
    <glyph glyph-name="asciicircum" unicode="^" horiz-adv-x="417" 
d="M292 497l-85 127l-86 -127h-77l135 196h57l137 -196h-81z" />
    <glyph glyph-name="asciitilde" unicode="~" horiz-adv-x="477" 
d="M310 323c46 0 79 25 79 25l33 -61s-41 -39 -110 -39c-57 0 -85 32 -146 32c-46 0 -79 -25 -79 -25l-32 60s42 40 109 40c57 0 85 -32 146 -32z" />
    <glyph glyph-name="asterisk" unicode="*" horiz-adv-x="387" 
d="M75 444l89 93l-124 20l24 71l111 -61l-17 127h72l-22 -128l115 62l24 -71l-127 -20l91 -93l-61 -43l-58 115l-58 -115z" />
    <glyph glyph-name="at" unicode="@" horiz-adv-x="1001" 
d="M746 51c-101 0 -134 66 -141 97h-6c-13 -22 -62 -91 -161 -91c-104 0 -177 72 -177 186c0 155 105 254 225 254c86 0 122 -47 136 -83l17 73h79l-28 -242c-1 -10 -3 -27 -3 -43c0 -49 31 -83 81 -83c71 0 126 72 126 196c0 175 -133 373 -384 373
c-244 0 -415 -191 -415 -410c0 -228 185 -413 411 -413c126 0 211 57 211 57l24 -51s-84 -62 -235 -62c-278 0 -470 221 -470 467c0 253 191 469 474 469c259 0 451 -194 451 -428c0 -150 -84 -266 -215 -266zM466 147c78 0 134 70 134 154c0 68 -41 107 -102 107
c-70 0 -132 -60 -132 -150c0 -70 40 -111 100 -111z" />
    <glyph glyph-name="b" unicode="b" horiz-adv-x="521" 
d="M60 0v605h98v-239h4s28 64 132 64c108 0 192 -89 192 -220c0 -134 -84 -220 -195 -220c-112 0 -146 76 -146 76h-4l-14 -66h-67zM153 210c0 -86 51 -139 118 -139s116 58 116 139c0 82 -49 139 -116 139s-118 -52 -118 -139z" />
    <glyph glyph-name="backslash" unicode="\" horiz-adv-x="375" 
d="M247 -128l-217 926h98l217 -926h-98z" />
    <glyph glyph-name="bar" unicode="|" horiz-adv-x="209" 
d="M150 687v-815h-91v815h91z" />
    <glyph glyph-name="braceleft" unicode="{" horiz-adv-x="290" 
d="M15 326h25c40 0 61 27 61 86v162c0 84 44 134 144 141l14 -82c-40 -7 -57 -18 -57 -67v-166c0 -57 -21 -96 -61 -110v-9c40 -13 61 -53 61 -108v-167c0 -48 17 -61 57 -66l-14 -82c-100 6 -144 56 -144 140v163c0 58 -21 87 -61 87h-25v78z" />
    <glyph glyph-name="braceright" unicode="}" horiz-adv-x="290" 
d="M251 326h24v-78h-24c-41 0 -62 -29 -62 -87v-163c0 -84 -44 -134 -143 -140l-15 82c41 5 57 18 57 66v167c0 55 21 95 62 108v9c-41 14 -62 53 -62 110v166c0 49 -16 60 -57 67l15 82c99 -7 143 -57 143 -141v-162c0 -59 21 -86 62 -86z" />
    <glyph glyph-name="bracketleft" unicode="[" horiz-adv-x="326" 
d="M59 -130v830h250v-80h-156v-670h156v-80h-250z" />
    <glyph glyph-name="bracketright" unicode="]" horiz-adv-x="326" 
d="M17 -130v80h155v670h-155v80h250v-830h-250z" />
    <glyph glyph-name="breve" unicode="&#x2d8;" horiz-adv-x="396" 
d="M267 813h78c0 -79 -56 -148 -146 -148c-91 0 -146 69 -146 148h77c0 -45 28 -77 69 -77c39 0 68 32 68 77z" />
    <glyph glyph-name="brokenbar" unicode="&#xa6;" horiz-adv-x="218" 
d="M154 330h-90v343h90v-343zM154 -153h-90v343h90v-343z" />
    <glyph glyph-name="bullet" unicode="&#x2022;" horiz-adv-x="319" 
d="M159 308c47 0 86 -38 86 -85s-39 -84 -86 -84s-85 37 -85 84s38 85 85 85z" />
    <glyph glyph-name="c" unicode="c" horiz-adv-x="409" 
d="M250 -10c-129 0 -216 91 -216 219c0 129 87 221 216 221c91 0 130 -37 130 -37l-27 -72s-39 28 -96 28c-70 0 -124 -52 -124 -140c0 -89 54 -138 124 -138c57 0 96 28 96 28l26 -71s-38 -38 -129 -38z" />
    <glyph glyph-name="ccedilla" unicode="&#xe7;" horiz-adv-x="409" 
d="M207 -73l-17 20l22 46c-108 15 -178 101 -178 216c0 129 87 221 216 221c91 0 130 -37 130 -37l-27 -72s-39 28 -96 28c-70 0 -124 -52 -124 -140c0 -89 54 -138 124 -138c57 0 96 28 96 28l26 -71s-36 -35 -119 -38l-10 -25c36 0 64 -23 64 -64c0 -43 -30 -73 -83 -73
c-55 0 -80 30 -80 30l24 36c7 -5 25 -20 53 -20c24 0 38 11 38 29s-15 27 -36 27c-15 0 -23 -3 -23 -3z" />
    <glyph glyph-name="cent" unicode="&#xa2;" horiz-adv-x="428" 
d="M183 0l11 86c-94 25 -155 105 -155 211c0 127 86 218 212 221l11 82h51l-11 -86c55 -9 85 -32 85 -32l-26 -73s-28 19 -70 26l-36 -276h10c56 0 96 28 96 28l25 -72s-44 -37 -128 -37h-14l-10 -78h-51zM138 297c0 -59 27 -103 68 -124l34 261c-58 -11 -102 -62 -102 -137
z" />
    <glyph glyph-name="colon" unicode=":" horiz-adv-x="226" 
d="M82 21c-16 17 -16 44 2 60c17 16 44 14 60 -3s15 -44 -3 -60c-17 -16 -44 -14 -59 3zM82 339c-16 17 -16 43 2 59c17 16 44 15 60 -2c16 -18 15 -44 -3 -60c-17 -16 -44 -15 -59 3z" />
    <glyph glyph-name="comma" unicode="," horiz-adv-x="213" 
d="M165 49v-7c0 -81 -46 -149 -130 -165l-15 53c42 10 68 31 73 61c-28 6 -48 29 -48 58c0 34 27 60 60 60s60 -26 60 -60z" />
    <glyph glyph-name="copyright" unicode="&#xa9;" horiz-adv-x="681" 
d="M341 605c187 0 299 -138 299 -306c0 -167 -112 -305 -299 -305c-186 0 -300 138 -300 305c0 168 114 306 300 306zM341 563c-159 0 -255 -118 -255 -264c0 -144 96 -263 255 -263s256 119 256 263c0 146 -97 264 -256 264zM452 424l-34 -51s-24 25 -67 25
c-58 0 -94 -42 -94 -98s36 -97 94 -97c43 0 67 24 67 24l34 -50s-32 -37 -104 -37c-101 0 -160 71 -160 160s59 161 160 161c73 0 104 -37 104 -37z" />
    <glyph glyph-name="d" unicode="d" 
d="M360 371h4v234h98v-605h-66l-15 62h-4s-36 -72 -146 -72c-111 0 -196 86 -196 220c0 131 84 220 193 220c101 0 132 -59 132 -59zM370 210c0 87 -52 139 -119 139c-68 0 -117 -57 -117 -139c0 -81 49 -139 117 -139c67 0 119 53 119 139z" />
    <glyph glyph-name="dagger" unicode="&#x2020;" horiz-adv-x="410" 
d="M32 420v80h133v135h82v-135h131v-80h-131l-8 -256h-66l-8 256h-133z" />
    <glyph glyph-name="daggerdbl" unicode="&#x2021;" horiz-adv-x="441" 
d="M49 453v80h133v135h82v-135h131v-80h-131l-7 -119l7 -119h131v-80h-131v-135h-82v135h-133v80h133l6 119l-6 119h-133z" />
    <glyph glyph-name="degree" unicode="&#xb0;" horiz-adv-x="293" 
d="M147 672c68 0 114 -48 114 -108s-46 -107 -114 -107c-69 0 -115 47 -115 107s46 108 115 108zM147 622c-36 0 -58 -25 -58 -58c0 -30 22 -55 58 -55c35 0 57 25 57 55c0 33 -22 58 -57 58z" />
    <glyph glyph-name="divide" unicode="&#xf7;" horiz-adv-x="487" 
d="M180 134c0 36 28 64 63 64s63 -28 63 -64c0 -35 -28 -62 -63 -62s-63 27 -63 62zM180 463c0 35 28 63 63 63s63 -28 63 -63c0 -36 -28 -63 -63 -63s-63 27 -63 63zM49 256v80h389v-80h-389z" />
    <glyph glyph-name="dollar" unicode="$" horiz-adv-x="519" 
d="M36 61l54 75s57 -47 142 -57v186c-129 40 -191 85 -191 177c0 96 67 161 191 170v104h59v-104c127 -8 179 -60 179 -60l-54 -81s-46 40 -125 48v-167c139 -40 195 -93 195 -184c0 -96 -64 -171 -195 -181v-94h-59v94c-133 9 -196 74 -196 74zM376 161c0 37 -19 60 -85 85
v-166c59 8 85 39 85 81zM150 446c0 -33 21 -53 82 -75v148c-51 -7 -82 -32 -82 -73z" />
    <glyph glyph-name="dotaccent" unicode="&#x2d9;" horiz-adv-x="331" 
d="M166 550c-38 0 -67 29 -67 67s29 68 67 68s68 -30 68 -68s-30 -67 -68 -67z" />
    <glyph glyph-name="dotlessi" unicode="&#x131;" horiz-adv-x="221" 
d="M61 0v420h98v-420h-98z" />
    <glyph glyph-name="e" unicode="e" horiz-adv-x="459" 
d="M373 105l35 -67s-48 -50 -154 -50c-137 0 -220 93 -220 221c0 127 81 221 204 221c122 0 191 -87 191 -209c0 -9 -1 -26 -1 -26h-298c6 -85 56 -127 130 -127c71 0 113 37 113 37zM236 354c-54 0 -91 -31 -102 -94h197c-7 61 -40 94 -95 94z" />
    <glyph glyph-name="eacute" unicode="&#xe9;" horiz-adv-x="459" 
d="M370 629l-99 -132h-67l52 145zM373 105l35 -67s-48 -50 -154 -50c-137 0 -220 93 -220 221c0 127 81 221 204 221c122 0 191 -87 191 -209c0 -9 -1 -26 -1 -26h-298c6 -85 56 -127 130 -127c71 0 113 37 113 37zM236 354c-54 0 -91 -31 -102 -94h197c-7 61 -40 94 -95 94
z" />
    <glyph glyph-name="ecircumflex" unicode="&#xea;" horiz-adv-x="459" 
d="M286 496l-49 62l-50 -62h-76l87 121h77l88 -121h-77zM373 105l35 -67s-48 -50 -154 -50c-137 0 -220 93 -220 221c0 127 81 221 204 221c122 0 191 -87 191 -209c0 -9 -1 -26 -1 -26h-298c6 -85 56 -127 130 -127c71 0 113 37 113 37zM236 354c-54 0 -91 -31 -102 -94
h197c-7 61 -40 94 -95 94z" />
    <glyph glyph-name="edieresis" unicode="&#xeb;" horiz-adv-x="459" 
d="M98 539c0 29 26 55 54 55c29 0 55 -26 55 -55s-26 -55 -55 -55c-28 0 -54 26 -54 55zM269 539c0 29 25 55 53 55c29 0 54 -26 54 -55s-25 -55 -54 -55c-28 0 -53 26 -53 55zM373 105l35 -67s-48 -50 -154 -50c-137 0 -220 93 -220 221c0 127 81 221 204 221
c122 0 191 -87 191 -209c0 -9 -1 -26 -1 -26h-298c6 -85 56 -127 130 -127c71 0 113 37 113 37zM236 354c-54 0 -91 -31 -102 -94h197c-7 61 -40 94 -95 94z" />
    <glyph glyph-name="egrave" unicode="&#xe8;" horiz-adv-x="459" 
d="M373 105l35 -67s-48 -50 -154 -50c-137 0 -220 93 -220 221c0 127 81 221 204 221c122 0 191 -87 191 -209c0 -9 -1 -26 -1 -26h-298c6 -85 56 -127 130 -127c71 0 113 37 113 37zM236 354c-54 0 -91 -31 -102 -94h197c-7 61 -40 94 -95 94zM197 497l-91 134l113 17
l45 -151h-67z" />
    <glyph glyph-name="eight" unicode="8" horiz-adv-x="530" 
d="M266 -14c-142 0 -222 84 -222 185c0 63 30 113 83 143c-44 30 -67 77 -67 128c0 95 71 171 206 171c134 0 205 -76 205 -171c0 -51 -23 -98 -67 -128c52 -30 83 -80 83 -143c0 -101 -81 -185 -221 -185zM383 174c0 56 -46 99 -117 99c-72 0 -118 -43 -118 -99
c0 -55 46 -100 118 -100c71 0 117 45 117 100zM266 349c66 0 104 40 104 88c0 47 -38 88 -104 88c-67 0 -105 -41 -105 -88c0 -48 38 -88 105 -88z" />
    <glyph glyph-name="ellipsis" unicode="&#x2026;" horiz-adv-x="732" 
d="M48 58c0 38 30 69 68 69s68 -31 68 -69s-30 -67 -68 -67s-68 29 -68 67zM298 58c0 38 30 69 67 69c38 0 69 -31 69 -69s-31 -67 -69 -67c-37 0 -67 29 -67 67zM547 58c0 38 30 69 68 69s68 -31 68 -69s-30 -67 -68 -67s-68 29 -68 67z" />
    <glyph glyph-name="emdash" unicode="&#x2014;" horiz-adv-x="711" 
d="M59 247v81h588v-81h-588z" />
    <glyph glyph-name="endash" unicode="&#x2013;" horiz-adv-x="458" 
d="M59 247v81h335v-81h-335z" />
    <glyph glyph-name="equal" unicode="=" horiz-adv-x="459" 
d="M58 348v80h344v-80h-344zM58 157v81h344v-81h-344z" />
    <glyph glyph-name="eth" unicode="&#xf0;" horiz-adv-x="504" 
d="M252 -10c-133 0 -218 85 -218 219c0 130 85 220 218 220c13 0 26 -1 38 -3v4s-15 18 -28 40l-37 59l-111 -68l-33 56l111 67l-81 133v11h94l60 -99l116 71l32 -55l-114 -70l118 -193c38 -64 53 -105 53 -173c0 -134 -84 -219 -218 -219zM371 210c0 89 -51 138 -119 138
c-69 0 -119 -51 -119 -138c0 -88 51 -140 119 -140c69 0 119 52 119 140z" />
    <glyph glyph-name="partialdiff" unicode="&#x2202;" horiz-adv-x="505" 
d="M252 -10c-133 0 -218 85 -218 219c0 130 85 220 218 220c13 0 26 -1 38 -3v4s-15 18 -28 40l-151 247v11h94l212 -346c38 -64 53 -105 53 -173c0 -134 -84 -219 -218 -219zM371 210c0 89 -51 138 -119 138c-69 0 -119 -51 -119 -138c0 -88 51 -140 119 -140
c69 0 119 52 119 140z" />
    <glyph glyph-name="exclam" unicode="!" horiz-adv-x="222" 
d="M168 600l-24 -415h-67l-25 415h116zM49 55c0 35 27 63 62 63s63 -28 63 -63s-28 -63 -63 -63s-62 28 -62 63z" />
    <glyph glyph-name="exclamdown" unicode="&#xa1;" horiz-adv-x="211" 
d="M139 238l24 -415h-116l25 415h67zM43 368c0 36 28 63 63 63s62 -27 62 -63c0 -35 -27 -63 -62 -63s-63 28 -63 63z" />
    <glyph glyph-name="f" unicode="f" horiz-adv-x="322" 
d="M311 343h-117v-343h-98v343h-75v77h75v36c0 97 55 156 152 156c59 0 95 -20 95 -20l-31 -74s-22 11 -54 11c-39 0 -64 -26 -64 -68v-41h117v-77z" />
    <glyph glyph-name="i" unicode="i" horiz-adv-x="221" 
d="M110 497c-33 0 -60 25 -60 59c0 33 27 59 60 59c34 0 61 -26 61 -59c0 -34 -27 -59 -61 -59zM61 0v420h98v-420h-98z" />
    <glyph glyph-name="five" unicode="5" horiz-adv-x="495" 
d="M425 512h-259l-3 -146c20 4 41 6 68 6c158 0 227 -76 227 -186c0 -114 -75 -198 -225 -198c-136 0 -199 83 -199 83l54 72s53 -64 143 -64c78 0 123 40 123 106c0 60 -46 102 -141 102c-81 0 -131 -22 -132 -23l-13 10l9 326h348v-88z" />
    <glyph glyph-name="l" unicode="l" horiz-adv-x="222" 
d="M62 0v605h98v-605h-98z" />
    <glyph glyph-name="florin" unicode="&#x192;" horiz-adv-x="530" 
d="M171 131l43 212h-77v77h93l5 24c23 109 88 163 189 163c59 0 95 -19 95 -19l-40 -82s-23 13 -58 13c-51 0 -78 -22 -88 -74l-5 -25h137v-77h-153l-46 -230c-15 -72 -46 -117 -133 -117c-56 0 -93 25 -93 25l31 76s22 -14 48 -14c31 0 45 13 52 48z" />
    <glyph glyph-name="four" unicode="4" horiz-adv-x="562" 
d="M22 135v73l326 392h86v-377h99v-88h-99v-135h-99v135h-313zM147 227v-4h188v230l-170 -209c-8 -9 -18 -17 -18 -17z" />
    <glyph glyph-name="fraction" unicode="&#x2044;" horiz-adv-x="576" 
d="M70 0h-81l517 661h81z" />
    <glyph glyph-name="germandbls" unicode="&#xdf;" horiz-adv-x="498" 
d="M237 263v70c73 12 97 52 97 102s-31 86 -85 86c-52 0 -91 -38 -91 -104v-417h-98v406c0 128 69 199 194 199c111 0 183 -73 183 -169c0 -58 -27 -103 -70 -125c63 -21 96 -80 96 -145c0 -106 -72 -174 -189 -174c-49 0 -68 8 -68 8l6 68s22 -3 47 -3c67 0 109 39 109 98
c0 64 -44 100 -108 100h-23z" />
    <glyph glyph-name="greater" unicode="&#x3e;" horiz-adv-x="372" 
d="M336 331v-63l-272 -181v105l181 107l-181 107v105z" />
    <glyph glyph-name="greaterequal" unicode="&#x2265;" horiz-adv-x="388" 
d="M137 199l-58 59l142 133l-143 138l58 60l192 -188v-19zM46 64v81h291v-81h-291z" />
    <glyph glyph-name="guillemotleft" unicode="&#xab;" horiz-adv-x="476" 
d="M36 197v22l124 189h83v-10l-120 -186v-6l120 -188v-10h-83zM233 197v22l124 189h82v-10l-120 -186v-6l120 -188v-10h-82z" />
    <glyph glyph-name="guillemotright" unicode="&#xbb;" horiz-adv-x="476" 
d="M244 219v-22l-124 -189h-83v10l121 188v6l-121 186v10h83zM440 219v-22l-124 -189h-83v10l121 188v6l-121 186v10h83z" />
    <glyph glyph-name="guilsinglleft" unicode="&#x2039;" horiz-adv-x="280" 
d="M36 197v22l124 189h83v-10l-120 -186v-6l120 -188v-10h-83z" />
    <glyph glyph-name="guilsinglright" unicode="&#x203a;" horiz-adv-x="280" 
d="M244 219v-22l-124 -189h-83v10l121 188v6l-121 186v10h83z" />
    <glyph glyph-name="h" unicode="h" horiz-adv-x="512" 
d="M60 0v605h99v-225h3c27 33 66 50 125 50c106 0 170 -75 170 -189v-241h-98v231c0 65 -36 115 -99 115c-68 0 -101 -58 -101 -103v-243h-99z" />
    <glyph glyph-name="hungarumlaut" unicode="&#x2dd;" horiz-adv-x="395" 
d="M344 577l-80 -158h-65l39 158h106zM181 577l-80 -158h-65l39 158h106z" />
    <glyph glyph-name="hyphen" unicode="-" horiz-adv-x="388" 
d="M54 189v80h280v-80h-280z" />
    <glyph glyph-name="iacute" unicode="&#xed;" horiz-adv-x="221" 
d="M243 629l-99 -132h-67l52 145zM61 0v420h98v-420h-98z" />
    <glyph glyph-name="icircumflex" unicode="&#xee;" horiz-adv-x="221" 
d="M161 517l-49 62l-50 -62h-76l87 121h77l88 -121h-77zM61 0v420h98v-420h-98z" />
    <glyph glyph-name="idieresis" unicode="&#xef;" horiz-adv-x="221" 
d="M-26 571c0 29 26 55 54 55c29 0 55 -26 55 -55s-26 -55 -55 -55c-28 0 -54 26 -54 55zM145 571c0 29 25 55 53 55c29 0 54 -26 54 -55s-25 -55 -54 -55c-28 0 -53 26 -53 55zM61 0v420h98v-420h-98z" />
    <glyph glyph-name="igrave" unicode="&#xec;" horiz-adv-x="221" 
d="M61 0v420h98v-420h-98zM72 497l-91 134l113 17l45 -151h-67z" />
    <glyph glyph-name="infinity" unicode="&#x221e;" horiz-adv-x="757" 
d="M210 115c-101 0 -167 79 -167 170c0 90 66 171 167 171c77 0 127 -54 170 -115c41 61 91 115 167 115c89 0 167 -68 167 -171c0 -89 -64 -170 -167 -170c-77 0 -128 53 -170 113c-41 -60 -90 -113 -167 -113zM542 379c-52 0 -87 -43 -118 -92c33 -51 68 -95 118 -95
c57 0 90 44 90 93c0 54 -39 94 -90 94zM216 192c50 0 86 42 117 92c-33 51 -67 95 -117 95c-58 0 -90 -47 -90 -94c0 -49 32 -93 90 -93z" />
    <glyph glyph-name="integral" unicode="&#x222b;" horiz-adv-x="318" 
d="M110 21v503c0 77 35 125 114 125c49 0 80 -22 80 -22l-26 -73s-17 9 -35 9c-23 0 -34 -14 -34 -49v-503c0 -77 -35 -125 -114 -125c-49 0 -80 22 -80 22l27 73s17 -9 34 -9c23 0 34 14 34 49z" />
    <glyph glyph-name="j" unicode="j" horiz-adv-x="221" 
d="M2 -156v82h15c30 0 44 19 44 45v449h99v-454c0 -74 -40 -122 -120 -122h-38zM110 497c-34 0 -60 25 -60 59c0 33 26 59 60 59s61 -26 61 -59c0 -34 -27 -59 -61 -59z" />
    <glyph glyph-name="k" unicode="k" horiz-adv-x="456" 
d="M323 420h122l-170 -183l173 -237h-119l-130 176l-41 -44v-132h-98v605h98v-365z" />
    <glyph glyph-name="less" unicode="&#x3c;" horiz-adv-x="372" 
d="M36 268v63l272 180v-105l-181 -107l181 -107v-105z" />
    <glyph glyph-name="lessequal" unicode="&#x2264;" horiz-adv-x="388" 
d="M309 258l-57 -59l-192 183v19l192 188l58 -60l-143 -138zM343 145v-81h-292v81h292z" />
    <glyph glyph-name="logicalnot" unicode="&#xac;" horiz-adv-x="552" 
d="M44 266v80h447v-346h-82v266h-365z" />
    <glyph glyph-name="lozenge" unicode="&#x25ca;" horiz-adv-x="470" 
d="M269 600l170 -300l-170 -300h-68l-169 300l169 300h68zM142 299l86 -166h14l86 166l-86 168h-14z" />
    <glyph glyph-name="lslash" unicode="&#x142;" horiz-adv-x="239" 
d="M19 219v58l50 31v297h98v-237l57 36v-58l-57 -36v-310h-98v250z" />
    <glyph glyph-name="m" unicode="m" horiz-adv-x="806" 
d="M60 0v420h64l12 -60h6c31 46 70 70 139 70s120 -28 149 -76h5c28 46 69 76 144 76c109 0 172 -76 172 -189v-241h-98v232c0 64 -33 114 -98 114c-66 0 -97 -49 -100 -95v-251h-98v242c0 59 -35 104 -99 104c-67 0 -97 -51 -100 -95v-251h-98z" />
    <glyph glyph-name="macron" unicode="&#xaf;" horiz-adv-x="526" 
d="M121 668v61h295v-61h-295z" />
    <glyph glyph-name="minus" unicode="&#x2212;" horiz-adv-x="549" 
d="M58 258v81h434v-81h-434z" />
    <glyph glyph-name="mu" unicode="&#xb5;" horiz-adv-x="510" 
d="M354 174v246h98v-420h-64l-17 58h-4c-15 -22 -53 -68 -138 -68c-29 0 -54 5 -76 15l2 -133h-98v548h98v-232c0 -66 31 -116 96 -116c71 0 103 59 103 102z" />
    <glyph glyph-name="u" unicode="u" horiz-adv-x="510" 
d="M352 174v246h98v-420h-64l-17 58h-4c-15 -22 -53 -68 -138 -68c-109 0 -172 76 -172 189v241h98v-232c0 -66 31 -116 96 -116c71 0 103 59 103 102z" />
    <glyph glyph-name="multiply" unicode="&#xd7;" horiz-adv-x="502" 
d="M107 95l-56 56l145 149l-145 150l56 56l144 -149l145 149l56 -56l-146 -150l146 -149l-56 -56l-145 149z" />
    <glyph glyph-name="n" unicode="n" horiz-adv-x="513" 
d="M60 0v420h64l12 -60h6c30 46 70 70 141 70c109 0 175 -76 175 -189v-241h-98v232c0 64 -36 114 -100 114c-66 0 -99 -52 -102 -95v-251h-98z" />
    <glyph glyph-name="nine" unicode="9" horiz-adv-x="536" 
d="M250 80c83 0 138 57 133 194v7c-32 -37 -80 -59 -140 -59c-123 0 -207 77 -207 186c0 116 92 202 218 202c129 0 238 -81 238 -301c0 -204 -93 -322 -242 -322c-131 0 -184 78 -184 78l56 77c17 -14 53 -62 128 -62zM253 306c67 0 116 41 124 102
c-15 77 -62 111 -122 111c-69 0 -115 -49 -115 -110c0 -59 44 -103 113 -103z" />
    <glyph glyph-name="notequal" unicode="&#x2260;" horiz-adv-x="474" 
d="M52 349v80h195l43 114l68 -24l-34 -90h98v-80h-127l-48 -129h175v-80h-204l-41 -111l-68 24l32 87h-89v80h118l48 129h-166z" />
    <glyph glyph-name="ntilde" unicode="&#xf1;" horiz-adv-x="513" 
d="M60 0v420h64l12 -60h6c30 46 70 70 141 70c109 0 175 -76 175 -189v-241h-98v232c0 64 -36 114 -100 114c-66 0 -99 -52 -102 -95v-251h-98zM330 519c-61 0 -98 50 -137 50c-25 0 -33 -17 -39 -36l-4 -16l-69 7l5 30c10 50 37 90 95 90c60 0 97 -50 137 -50
c26 0 35 16 40 37l3 15l69 -6l-5 -30c-8 -51 -37 -91 -95 -91z" />
    <glyph glyph-name="numbersign" unicode="#" horiz-adv-x="635" 
d="M520 583l-34 -155h118l-13 -59h-118l-34 -156h116l-13 -59h-116l-34 -154h-63l33 154h-150l-33 -154h-64l34 154h-118l13 59h118l34 156h-116l13 59h116l34 155h62l-34 -155h151l34 155h64zM258 369l-33 -156h150l34 156h-151z" />
    <glyph glyph-name="o" unicode="o" horiz-adv-x="499" 
d="M465 208c0 -133 -97 -218 -216 -218s-215 85 -215 218c0 134 96 222 215 222s216 -88 216 -222zM249 68c67 0 120 54 120 141s-53 143 -120 143s-120 -56 -120 -143s53 -141 120 -141z" />
    <glyph glyph-name="oacute" unicode="&#xf3;" horiz-adv-x="499" 
d="M380 629l-99 -132h-67l52 145zM465 208c0 -133 -97 -218 -216 -218s-215 85 -215 218c0 134 96 222 215 222s216 -88 216 -222zM249 68c67 0 120 54 120 141s-53 143 -120 143s-120 -56 -120 -143s53 -141 120 -141z" />
    <glyph glyph-name="ocircumflex" unicode="&#xf4;" horiz-adv-x="499" 
d="M300 517l-49 62l-50 -62h-76l87 121h77l88 -121h-77zM465 208c0 -133 -97 -218 -216 -218s-215 85 -215 218c0 134 96 222 215 222s216 -88 216 -222zM249 68c67 0 120 54 120 141s-53 143 -120 143s-120 -56 -120 -143s53 -141 120 -141z" />
    <glyph glyph-name="odieresis" unicode="&#xf6;" horiz-adv-x="499" 
d="M111 572c0 29 26 55 54 55c29 0 55 -26 55 -55s-26 -55 -55 -55c-28 0 -54 26 -54 55zM282 572c0 29 25 55 53 55c29 0 54 -26 54 -55s-25 -55 -54 -55c-28 0 -53 26 -53 55zM465 208c0 -133 -97 -218 -216 -218s-215 85 -215 218c0 134 96 222 215 222s216 -88 216 -222
zM249 68c67 0 120 54 120 141s-53 143 -120 143s-120 -56 -120 -143s53 -141 120 -141z" />
    <glyph glyph-name="oe" unicode="&#x153;" horiz-adv-x="812" 
d="M728 105l35 -67s-48 -50 -154 -50c-83 0 -146 34 -183 89c-39 -55 -104 -87 -177 -87c-119 0 -215 85 -215 218c0 134 96 222 215 222c72 0 137 -33 176 -89c35 55 94 89 168 89c122 0 191 -87 191 -209c0 -9 -1 -26 -1 -26h-298c6 -85 56 -127 130 -127
c71 0 113 37 113 37zM249 68c67 0 120 54 120 141s-53 143 -120 143s-120 -56 -120 -143s53 -141 120 -141zM591 354c-54 0 -91 -31 -102 -94h197c-7 61 -40 94 -95 94z" />
    <glyph glyph-name="ogonek" unicode="&#x2db;" horiz-adv-x="195" 
d="M148 -73l28 -36s-23 -30 -70 -30c-50 0 -79 30 -79 73c0 59 66 87 93 96l10 -30c-9 -5 -46 -23 -46 -55c0 -20 11 -32 32 -32c17 0 29 11 32 14z" />
    <glyph glyph-name="ograve" unicode="&#xf2;" horiz-adv-x="499" 
d="M465 208c0 -133 -97 -218 -216 -218s-215 85 -215 218c0 134 96 222 215 222s216 -88 216 -222zM249 68c67 0 120 54 120 141s-53 143 -120 143s-120 -56 -120 -143s53 -141 120 -141zM214 497l-91 134l113 17l45 -151h-67z" />
    <glyph glyph-name="one" unicode="1" horiz-adv-x="313" 
d="M15 512v88h230v-600h-99v512h-131z" />
    <glyph glyph-name="onehalf" unicode="&#xbd;" horiz-adv-x="695" 
d="M111 0h-80l470 600h82zM417 54v-54h241v58h-141l91 78c32 27 43 55 43 92c0 57 -37 107 -122 107c-73 0 -116 -45 -116 -45l36 -53c11 10 40 35 77 35c38 0 55 -20 55 -48c0 -18 -7 -34 -31 -55zM47 541v59h133v-326h-67v267h-66z" />
    <glyph glyph-name="onequarter" unicode="&#xbc;" horiz-adv-x="637" 
d="M112 0h-81l471 600h81zM314 80v42l179 204h50v-191h59v-55h-59v-80h-63v80h-166zM43 541v59h134v-326h-67v267h-67zM419 160c-11 -13 -25 -27 -26 -28l39 3h48v98h-1z" />
    <glyph glyph-name="onesuperior" unicode="&#xb9;" horiz-adv-x="215" 
d="M23 609v59h133v-326h-67v267h-66z" />
    <glyph glyph-name="ordfeminine" unicode="&#xaa;" horiz-adv-x="395" 
d="M34 371c0 66 54 106 139 106c54 0 81 -14 93 -25v10c0 59 -19 90 -85 90c-42 0 -80 -16 -92 -22l-22 58s59 26 125 26c110 0 147 -59 147 -154v-186h-54l-11 36h-5c-10 -17 -38 -44 -111 -44c-71 0 -124 43 -124 105zM106 374c0 -33 28 -56 75 -56c51 0 85 29 85 58
c0 34 -34 53 -82 53c-50 0 -78 -21 -78 -55z" />
    <glyph glyph-name="ordmasculine" unicode="&#xba;" horiz-adv-x="399" 
d="M200 613c94 0 164 -67 164 -174c0 -103 -70 -170 -164 -170c-95 0 -165 67 -165 170c0 107 70 174 165 174zM200 550c-57 0 -93 -44 -93 -110c0 -65 36 -108 93 -108c56 0 92 43 92 108c0 66 -36 110 -92 110z" />
    <glyph glyph-name="oslash" unicode="&#xf8;" horiz-adv-x="500" 
d="M466 208c0 -133 -97 -218 -216 -218c-50 0 -95 14 -132 41l-30 -31h-70l64 66c-30 37 -47 85 -47 142c0 134 96 222 215 222c48 0 92 -15 128 -40l28 30h70l-62 -64c32 -38 52 -88 52 -148zM250 68c67 0 120 54 120 141c0 31 -8 59 -20 81l-175 -195
c21 -18 47 -27 75 -27zM130 209c0 -30 6 -55 17 -76l173 194c-19 16 -44 25 -70 25c-67 0 -120 -56 -120 -143z" />
    <glyph glyph-name="otilde" unicode="&#xf5;" horiz-adv-x="499" 
d="M465 208c0 -133 -97 -218 -216 -218s-215 85 -215 218c0 134 96 222 215 222s216 -88 216 -222zM249 68c67 0 120 54 120 141s-53 143 -120 143s-120 -56 -120 -143s53 -141 120 -141zM321 520c-61 0 -98 50 -137 50c-25 0 -33 -17 -39 -36l-4 -16l-69 7l5 30
c10 50 37 90 95 90c60 0 97 -50 137 -50c26 0 35 16 40 37l3 15l69 -6l-5 -30c-8 -51 -37 -91 -95 -91z" />
    <glyph glyph-name="p" unicode="p" horiz-adv-x="521" 
d="M162 49h-4v-205h-98v576h65l14 -60h6s38 70 147 70c110 0 195 -86 195 -220c0 -131 -84 -220 -192 -220c-104 0 -133 59 -133 59zM153 210c0 -87 52 -139 118 -139c68 0 117 57 117 139c0 81 -49 139 -117 139c-66 0 -118 -53 -118 -139z" />
    <glyph glyph-name="paragraph" unicode="&#xb6;" horiz-adv-x="536" 
d="M370 -82v204h-60c-160 0 -280 84 -280 244c0 155 117 235 278 235h161v-683h-99z" />
    <glyph glyph-name="parenleft" unicode="(" horiz-adv-x="275" 
d="M137 287c0 -201 83 -314 122 -359l-62 -65c-47 50 -162 184 -162 424c0 241 115 375 162 424l62 -65c-39 -45 -122 -157 -122 -359z" />
    <glyph glyph-name="parenright" unicode=")" horiz-adv-x="276" 
d="M138 287c0 202 -83 314 -122 359l63 65c46 -49 161 -183 161 -424c0 -240 -115 -374 -161 -424l-63 65c39 45 122 158 122 359z" />
    <glyph glyph-name="percent" unicode="%" horiz-adv-x="663" 
d="M171 613c85 0 133 -70 133 -149s-48 -150 -133 -150s-133 71 -133 150s48 149 133 149zM171 549c-39 0 -59 -33 -59 -85s20 -85 59 -85s59 33 59 85s-20 85 -59 85zM492 291c85 0 134 -70 134 -150c0 -78 -49 -149 -134 -149c-84 0 -133 71 -133 149c0 80 49 150 133 150
zM492 227c-38 0 -59 -33 -59 -86c0 -50 21 -84 59 -84c39 0 59 34 59 84c0 53 -20 86 -59 86zM521 600h92l-477 -600h-91z" />
    <glyph glyph-name="period" unicode="." horiz-adv-x="210" 
d="M105 -10c-33 0 -60 26 -60 59c0 34 27 60 60 60s60 -26 60 -60c0 -33 -27 -59 -60 -59z" />
    <glyph glyph-name="periodcentered" unicode="&#xb7;" horiz-adv-x="217" 
d="M46 359c0 35 28 64 62 64c35 0 63 -29 63 -64s-28 -63 -63 -63c-34 0 -62 28 -62 63z" />
    <glyph glyph-name="perthousand" unicode="&#x2030;" horiz-adv-x="967" 
d="M171 613c85 0 133 -70 133 -149s-48 -150 -133 -150s-133 71 -133 150s48 149 133 149zM171 379c39 0 59 33 59 85s-20 85 -59 85s-59 -33 -59 -85s20 -85 59 -85zM521 600h92l-477 -600h-91zM492 291c85 0 134 -70 134 -150c0 -78 -49 -149 -134 -149
c-84 0 -133 71 -133 149c0 80 49 150 133 150zM492 227c-38 0 -59 -33 -59 -86c0 -50 21 -84 59 -84c39 0 59 34 59 84c0 53 -20 86 -59 86zM804 227c-39 0 -60 -33 -60 -86c0 -50 21 -84 60 -84c38 0 58 34 58 84c0 53 -20 86 -58 86zM804 291c84 0 133 -70 133 -150
c0 -78 -49 -149 -133 -149c-85 0 -134 71 -134 149c0 80 49 150 134 150z" />
    <glyph glyph-name="pi" unicode="&#x3c0;" horiz-adv-x="527" 
d="M27 420h473v-79h-66v-341h-98v341h-145v-341h-98v341h-66v79z" />
    <glyph glyph-name="plus" unicode="+" horiz-adv-x="508" 
d="M295 515v-181h176v-80h-176v-173h-82v173h-176v80h176v181h82z" />
    <glyph glyph-name="plusminus" unicode="&#xb1;" 
d="M304 178h-82v160h-164v80h164v166h82v-166h160v-80h-160v-160zM464 112v-81h-406v81h406z" />
    <glyph glyph-name="product" unicode="&#x220f;" horiz-adv-x="626" 
d="M563 600v-600h-99v514h-302v-514h-99v600h500z" />
    <glyph glyph-name="q" unicode="q" 
d="M462 420v-576h-98v210h-4s-29 -64 -132 -64c-109 0 -193 89 -193 220c0 134 85 220 196 220c113 0 146 -77 146 -77h5l14 67h66zM370 210c0 86 -52 139 -119 139c-68 0 -117 -58 -117 -139c0 -82 49 -139 117 -139c67 0 119 52 119 139z" />
    <glyph glyph-name="question" unicode="?" horiz-adv-x="432" 
d="M75 477l-47 80s58 56 167 56c121 0 202 -61 202 -161c0 -143 -150 -158 -159 -246l-2 -23h-75v35c0 107 127 131 127 219c0 48 -39 81 -101 81c-66 0 -112 -41 -112 -41zM139 54c0 34 27 61 61 61s61 -27 61 -61c0 -35 -27 -62 -61 -62s-61 27 -61 62z" />
    <glyph glyph-name="questiondown" unicode="&#xbf;" horiz-adv-x="424" 
d="M353 -52l48 -80s-58 -56 -167 -56c-121 0 -203 61 -203 161c0 144 150 158 159 246l2 24h76v-36c0 -107 -127 -130 -127 -219c0 -48 38 -80 100 -80c66 0 112 40 112 40zM289 371c0 -34 -27 -61 -61 -61s-61 27 -61 61c0 35 27 62 61 62s61 -27 61 -62z" />
    <glyph glyph-name="quotedbl" unicode="&#x22;" horiz-adv-x="329" 
d="M152 684l-46 -209h-59l17 209h88zM301 684l-46 -209h-59l16 209h89z" />
    <glyph glyph-name="quotedblbase" unicode="&#x201e;" horiz-adv-x="450" 
d="M165 49v-7c0 -81 -46 -149 -130 -165l-15 53c42 10 68 31 73 61c-28 6 -48 29 -48 58c0 34 27 60 60 60s60 -26 60 -60zM403 49v-7c0 -81 -46 -149 -130 -165l-15 53c42 10 68 31 73 61c-28 6 -48 29 -48 58c0 34 27 60 60 60s60 -26 60 -60z" />
    <glyph glyph-name="quotedblleft" unicode="&#x201c;" horiz-adv-x="386" 
d="M207 428v7c0 81 46 149 130 165l15 -53c-42 -10 -67 -31 -72 -61c27 -6 47 -30 47 -58c0 -34 -26 -60 -60 -60c-33 0 -60 26 -60 60zM41 428v7c0 81 46 149 130 165l15 -53c-42 -10 -67 -31 -72 -61c27 -6 47 -30 47 -58c0 -34 -26 -60 -60 -60c-33 0 -60 26 -60 60z" />
    <glyph glyph-name="quotedblright" unicode="&#x201d;" horiz-adv-x="382" 
d="M348 540v-7c0 -82 -46 -149 -130 -165l-15 53c42 9 67 30 72 61c-28 5 -47 28 -47 58c0 33 26 60 60 60c33 0 60 -27 60 -60zM187 540v-7c0 -82 -46 -149 -129 -165l-16 53c42 9 68 30 73 61c-28 5 -48 28 -48 58c0 33 27 60 60 60c34 0 60 -27 60 -60z" />
    <glyph glyph-name="quoteleft" unicode="&#x2018;" horiz-adv-x="220" 
d="M41 428v7c0 81 46 149 130 165l15 -53c-42 -10 -67 -31 -72 -61c27 -6 47 -30 47 -58c0 -34 -26 -60 -60 -60c-33 0 -60 26 -60 60z" />
    <glyph glyph-name="quoteright" unicode="&#x2019;" horiz-adv-x="222" 
d="M188 540v-7c0 -82 -46 -149 -130 -165l-15 53c42 9 67 30 72 61c-27 5 -47 28 -47 58c0 33 27 60 60 60s60 -27 60 -60z" />
    <glyph glyph-name="quotesinglbase" unicode="&#x201a;" horiz-adv-x="213" 
d="M165 49v-7c0 -81 -46 -149 -130 -165l-15 53c42 10 68 31 73 61c-28 6 -48 29 -48 58c0 34 27 60 60 60s60 -26 60 -60z" />
    <glyph glyph-name="quotesingle" unicode="'" horiz-adv-x="181" 
d="M152 684l-45 -209h-60l17 209h88z" />
    <glyph glyph-name="r" unicode="r" horiz-adv-x="296" 
d="M284 421v-82h-23c-56 0 -101 -42 -103 -103v-236h-98v420h64l12 -67h5c22 44 64 68 120 68h23z" />
    <glyph glyph-name="radical" unicode="&#x221a;" horiz-adv-x="614" 
d="M625 600l-397 -792h-21l-204 399h110l71 -150c6 -14 29 -68 30 -78h10c1 10 23 64 30 78l259 543h112z" />
    <glyph glyph-name="registered" unicode="&#xae;" horiz-adv-x="541" 
d="M497 380c0 -127 -85 -233 -227 -233c-141 0 -225 107 -225 233c0 127 84 233 225 233c142 0 227 -106 227 -233zM452 380c0 108 -72 190 -182 190c-108 0 -180 -78 -180 -190c0 -107 72 -190 180 -190c110 0 182 82 182 190zM184 485h94c52 0 86 -29 86 -73
c0 -29 -14 -50 -37 -62l40 -57v-10h-48l-39 56h-51v-56h-45v202zM277 442h-48v-61h48c23 0 39 10 39 30c0 21 -14 31 -39 31z" />
    <glyph glyph-name="s" unicode="s" horiz-adv-x="418" 
d="M34 39l35 67s61 -41 139 -41c57 0 78 20 78 48c0 79 -250 37 -250 193c0 69 53 124 163 124c114 0 175 -36 175 -36l-33 -76s-54 36 -132 36c-50 0 -76 -15 -76 -45c0 -76 252 -28 252 -191c0 -69 -49 -128 -174 -128c-123 0 -177 49 -177 49z" />
    <glyph glyph-name="scaron" unicode="&#x161;" horiz-adv-x="418" 
d="M160 606l49 -62l50 62h76l-79 -109h-92l-81 109h77zM34 39l35 67s61 -41 139 -41c57 0 78 20 78 48c0 79 -250 37 -250 193c0 69 53 124 163 124c114 0 175 -36 175 -36l-33 -76s-54 36 -132 36c-50 0 -76 -15 -76 -45c0 -76 252 -28 252 -191c0 -69 -49 -128 -174 -128
c-123 0 -177 49 -177 49z" />
    <glyph glyph-name="section" unicode="&#xa7;" horiz-adv-x="528" 
d="M36 46l47 72s71 -48 177 -48c82 0 113 22 113 50c0 37 -32 48 -125 75c-91 26 -169 58 -169 128c0 37 22 58 36 67c-39 21 -61 49 -61 91c0 77 69 132 216 132c141 0 203 -47 203 -47l-46 -75s-58 40 -157 40c-73 0 -102 -20 -102 -48c0 -34 33 -49 102 -67
c96 -26 192 -62 192 -134c0 -39 -21 -63 -34 -74c38 -23 59 -51 59 -89c0 -70 -67 -133 -224 -133c-152 0 -227 60 -227 60zM236 348c-15 3 -29 7 -42 11c-7 -3 -17 -11 -17 -31c0 -26 39 -46 105 -65l64 -19c5 4 16 15 16 33c0 32 -49 50 -126 71z" />
    <glyph glyph-name="semicolon" unicode=";" horiz-adv-x="239" 
d="M181 49v-7c0 -81 -46 -149 -130 -165l-15 53c42 10 68 31 73 61c-28 6 -48 29 -48 58c0 34 27 60 60 60c34 0 60 -26 60 -60zM121 308c-33 0 -60 25 -60 59c0 33 27 60 60 60c34 0 60 -27 60 -60c0 -34 -26 -59 -60 -59z" />
    <glyph glyph-name="seven" unicode="7" horiz-adv-x="455" 
d="M27 512v88h414v-69l-259 -531h-116l256 512h-295z" />
    <glyph glyph-name="six" unicode="6" horiz-adv-x="538" 
d="M153 325v-7c32 36 80 59 140 59c123 0 207 -77 207 -186c0 -116 -92 -202 -217 -202c-130 0 -239 81 -239 301c0 204 99 320 248 320c131 0 184 -79 184 -79l-56 -76c-17 14 -53 61 -127 61c-83 0 -140 -53 -140 -191zM283 293c-68 0 -116 -41 -125 -103
c16 -77 63 -110 123 -110c69 0 115 49 115 110c0 59 -44 103 -113 103z" />
    <glyph glyph-name="slash" unicode="/" horiz-adv-x="591" 
d="M122 -111l-101 -1l449 895h99z" />
    <glyph glyph-name="space" unicode=" " horiz-adv-x="214" 
 />
    <glyph glyph-name="sterling" unicode="&#xa3;" horiz-adv-x="505" 
d="M455 88v-88h-396v88h1l-1 1s60 25 60 97c0 18 -6 42 -13 70h-63v72h44c-6 29 -11 59 -11 88c0 101 77 191 221 191c116 0 171 -63 171 -63l-59 -78s-39 45 -109 45c-78 0 -114 -47 -114 -106c0 -26 4 -51 10 -77h196v-72h-178c6 -24 10 -48 10 -69c0 -42 -13 -75 -30 -99
h261z" />
    <glyph glyph-name="summation" unicode="&#x2211;" horiz-adv-x="449" 
d="M45 600h360v-86h-236l149 -191v-49l-145 -188h232v-86h-360v86l167 206v13l-167 209v86z" />
    <glyph glyph-name="t" unicode="t" horiz-adv-x="332" 
d="M15 420h75v128h98v-128h113v-77h-113v-213c0 -36 17 -56 53 -56c27 0 52 16 52 16l29 -69c-10 -7 -50 -31 -101 -31c-92 0 -131 56 -131 138v215h-75v77z" />
    <glyph glyph-name="thorn" unicode="&#xfe;" 
d="M162 71h-4v-227h-98v756h98v-248h4s32 78 132 78c111 0 193 -86 193 -220c0 -131 -84 -220 -193 -220c-103 0 -132 81 -132 81zM154 210c0 -87 51 -139 118 -139s116 57 116 139c0 81 -49 139 -116 139s-118 -53 -118 -139z" />
    <glyph glyph-name="three" unicode="3" horiz-adv-x="507" 
d="M236 278h-80v63l159 171h-265v88h399v-76l-158 -167c112 -9 167 -69 167 -171c0 -104 -67 -198 -223 -198c-139 0 -201 83 -201 83l54 72s54 -64 143 -64c86 0 123 48 123 103c0 58 -33 96 -118 96z" />
    <glyph glyph-name="threequarters" unicode="&#xbe;" horiz-adv-x="706" 
d="M187 0h-81l470 600h82zM387 77v42l178 204h51v-191h55v-55h-55v-77h-65v77h-164zM45 541v59h227v-44l-65 -84c51 -10 79 -43 79 -94c0 -62 -43 -112 -132 -112c-75 0 -117 42 -120 45l36 49s32 -33 82 -33c44 0 65 23 65 51c0 29 -19 47 -58 47h-40v36l63 80h-137z
M491 158c-11 -14 -25 -28 -26 -29l39 3h47v99h-1z" />
    <glyph glyph-name="threesuperior" unicode="&#xb3;" horiz-adv-x="328" 
d="M48 609v59h227v-44l-65 -84c52 -10 80 -44 80 -94c0 -62 -44 -112 -133 -112c-75 0 -117 42 -120 45l36 49s32 -33 82 -33c45 0 65 23 65 51c0 29 -19 47 -58 47h-40v36l63 80h-137z" />
    <glyph glyph-name="trademark" unicode="&#x2122;" horiz-adv-x="718" 
d="M403 281h-65v319h46l110 -144l114 144h44v-319h-65v196l-80 -104h-24l-80 104v-196zM283 600v-57h-93v-262h-64v262h-93v57h250z" />
    <glyph glyph-name="two" unicode="2" horiz-adv-x="506" 
d="M44 0v69l241 242c42 42 54 68 54 106c0 56 -42 101 -111 101c-73 0 -123 -51 -141 -66l-53 79s74 82 202 82c141 0 216 -83 216 -186c0 -60 -17 -106 -67 -155l-184 -184h262v-88h-419z" />
    <glyph glyph-name="twosuperior" unicode="&#xb2;" horiz-adv-x="341" 
d="M50 342v54l132 115c24 21 31 37 31 55c0 28 -16 48 -54 48s-66 -25 -78 -35l-36 53s43 45 116 45c86 0 123 -50 123 -107c0 -37 -11 -65 -43 -92l-91 -78h141v-58h-241z" />
    <glyph glyph-name="uacute" unicode="&#xfa;" horiz-adv-x="510" 
d="M381 629l-99 -132h-67l52 145zM352 174v246h98v-420h-64l-17 58h-4c-15 -22 -53 -68 -138 -68c-109 0 -172 76 -172 189v241h98v-232c0 -66 31 -116 96 -116c71 0 103 59 103 102z" />
    <glyph glyph-name="ucircumflex" unicode="&#xfb;" horiz-adv-x="510" 
d="M298 496l-49 62l-50 -62h-76l87 121h77l88 -121h-77zM352 174v246h98v-420h-64l-17 58h-4c-15 -22 -53 -68 -138 -68c-109 0 -172 76 -172 189v241h98v-232c0 -66 31 -116 96 -116c71 0 103 59 103 102z" />
    <glyph glyph-name="udieresis" unicode="&#xfc;" horiz-adv-x="510" 
d="M110 552c0 29 26 55 54 55c29 0 55 -26 55 -55s-26 -55 -55 -55c-28 0 -54 26 -54 55zM281 552c0 29 25 55 53 55c29 0 54 -26 54 -55s-25 -55 -54 -55c-28 0 -53 26 -53 55zM352 174v246h98v-420h-64l-17 58h-4c-15 -22 -53 -68 -138 -68c-109 0 -172 76 -172 189v241
h98v-232c0 -66 31 -116 96 -116c71 0 103 59 103 102z" />
    <glyph glyph-name="ugrave" unicode="&#xf9;" horiz-adv-x="510" 
d="M352 174v246h98v-420h-64l-17 58h-4c-15 -22 -53 -68 -138 -68c-109 0 -172 76 -172 189v241h98v-232c0 -66 31 -116 96 -116c71 0 103 59 103 102zM216 497l-91 134l113 17l45 -151h-67z" />
    <glyph glyph-name="underscore" unicode="_" horiz-adv-x="536" 
d="M47 -120v80h442v-80h-442z" />
    <glyph glyph-name="uni00A0" unicode="&#xa0;" horiz-adv-x="214" 
 />
    <glyph glyph-name="v" unicode="v" horiz-adv-x="459" 
d="M454 420l-190 -420h-69l-190 420h108l106 -273c5 -10 8 -22 8 -31h5c0 9 4 21 8 31l106 273h108z" />
    <glyph glyph-name="w" unicode="w" horiz-adv-x="661" 
d="M651 420l-153 -420h-84l-75 262c-4 11 -6 25 -6 39h-5c0 -14 -4 -28 -8 -39l-74 -262h-83l-153 420h103l81 -273c3 -10 7 -22 7 -31h7c0 9 5 23 7 33l75 271h83l75 -271c4 -11 7 -24 7 -33h7c0 9 3 20 6 31l83 273h100z" />
    <glyph glyph-name="x" unicode="x" horiz-adv-x="446" 
d="M14 0l148 216l-141 204h112l90 -143h3l90 143h111l-145 -204l153 -216h-112l-97 156h-3l-99 -156h-110z" />
    <glyph glyph-name="yen" unicode="&#xa5;" horiz-adv-x="592" 
d="M318 365l134 235h110l-177 -301h124v-72h-164v-68h164v-71h-164v-88h-99v88h-162v71h162v68h-162v72h121l-176 301h111l134 -235l22 -49z" />
    <glyph glyph-name="z" unicode="z" horiz-adv-x="425" 
d="M390 0h-356v53l229 288h-227v79h354v-48l-223 -293h223v-79z" />
    <glyph glyph-name="zcaron" unicode="&#x17e;" horiz-adv-x="425" 
d="M161 606l49 -62l50 62h76l-79 -109h-92l-81 109h77zM390 0h-356v53l229 288h-227v79h354v-48l-223 -293h223v-79z" />
    <glyph glyph-name="zero" unicode="0" horiz-adv-x="610" 
d="M305 -14c-171 0 -262 144 -262 313c0 171 91 314 262 314c172 0 263 -143 263 -314c0 -169 -91 -313 -263 -313zM305 82c106 0 161 94 161 217c0 124 -55 219 -161 219c-105 0 -161 -95 -161 -219c0 -123 56 -217 161 -217z" />
    <glyph glyph-name="a" unicode="a" 
d="M377 358h4l15 62h66v-420h-66l-15 62h-4s-36 -72 -146 -72c-111 0 -196 86 -196 220c0 131 84 220 194 220c112 0 148 -72 148 -72zM370 210c0 87 -52 139 -119 139c-68 0 -117 -57 -117 -139c0 -81 49 -139 117 -139c67 0 119 53 119 139z" />
    <glyph glyph-name="aacute" unicode="&#xe1;" 
d="M377 358h4l15 62h66v-420h-66l-15 62h-4s-36 -72 -146 -72c-111 0 -196 86 -196 220c0 131 84 220 194 220c112 0 148 -72 148 -72zM370 210c0 87 -52 139 -119 139c-68 0 -117 -57 -117 -139c0 -81 49 -139 117 -139c67 0 119 53 119 139zM378 629l-99 -132h-67l52 145z
" />
    <glyph glyph-name="acircumflex" unicode="&#xe2;" 
d="M377 358h4l15 62h66v-420h-66l-15 62h-4s-36 -72 -146 -72c-111 0 -196 86 -196 220c0 131 84 220 194 220c112 0 148 -72 148 -72zM370 210c0 87 -52 139 -119 139c-68 0 -117 -57 -117 -139c0 -81 49 -139 117 -139c67 0 119 53 119 139zM301 517l-49 62l-50 -62h-76
l87 121h77l88 -121h-77z" />
    <glyph glyph-name="atilde" unicode="&#xe3;" 
d="M377 358h4l15 62h66v-420h-66l-15 62h-4s-36 -72 -146 -72c-111 0 -196 86 -196 220c0 131 84 220 194 220c112 0 148 -72 148 -72zM370 210c0 87 -52 139 -119 139c-68 0 -117 -57 -117 -139c0 -81 49 -139 117 -139c67 0 119 53 119 139zM325 499c-61 0 -98 50 -137 50
c-25 0 -33 -17 -39 -36l-4 -16l-69 7l5 30c10 50 37 90 95 90c60 0 97 -50 137 -50c26 0 35 16 40 37l3 15l69 -6l-5 -30c-8 -51 -37 -91 -95 -91z" />
    <glyph glyph-name="adieresis" unicode="&#xe4;" 
d="M377 358h4l15 62h66v-420h-66l-15 62h-4s-36 -72 -146 -72c-111 0 -196 86 -196 220c0 131 84 220 194 220c112 0 148 -72 148 -72zM370 210c0 87 -52 139 -119 139c-68 0 -117 -57 -117 -139c0 -81 49 -139 117 -139c67 0 119 53 119 139zM109 551c0 29 26 55 54 55
c29 0 55 -26 55 -55s-26 -55 -55 -55c-28 0 -54 26 -54 55zM280 551c0 29 25 55 53 55c29 0 54 -26 54 -55s-25 -55 -54 -55c-28 0 -53 26 -53 55z" />
    <glyph glyph-name="aring" unicode="&#xe5;" 
d="M377 358h4l15 62h66v-420h-66l-15 62h-4s-36 -72 -146 -72c-111 0 -196 86 -196 220c0 131 84 220 194 220c112 0 148 -72 148 -72zM370 210c0 87 -52 139 -119 139c-68 0 -117 -57 -117 -139c0 -81 49 -139 117 -139c67 0 119 53 119 139zM141 584c0 52 41 88 109 88
c66 0 107 -36 107 -88s-41 -89 -107 -89c-68 0 -109 37 -109 89zM300 584c0 25 -19 39 -50 39c-32 0 -52 -14 -52 -39c0 -26 20 -39 52 -39c31 0 50 13 50 39z" />
    <glyph glyph-name="y" unicode="y" horiz-adv-x="508" 
d="M352 176v244h96v-402c0 -115 -67 -197 -202 -197c-102 0 -155 49 -169 65l49 62c8 -9 48 -49 117 -49c73 0 109 42 109 116v26c-19 -22 -59 -51 -123 -51c-113 0 -176 75 -176 189v241h98v-232c0 -66 31 -116 95 -116c73 0 106 56 106 104z" />
    <glyph glyph-name="yacute" unicode="&#xfd;" horiz-adv-x="508" 
d="M352 176v244h96v-402c0 -115 -67 -197 -202 -197c-102 0 -155 49 -169 65l49 62c8 -9 48 -49 117 -49c73 0 109 42 109 116v26c-19 -22 -59 -51 -123 -51c-113 0 -176 75 -176 189v241h98v-232c0 -66 31 -116 95 -116c73 0 106 56 106 104zM383 629l-99 -132h-67l52 145z
" />
    <glyph glyph-name="ydieresis" unicode="&#xff;" horiz-adv-x="508" 
d="M352 176v244h96v-402c0 -115 -67 -197 -202 -197c-102 0 -155 49 -169 65l49 62c8 -9 48 -49 117 -49c73 0 109 42 109 116v26c-19 -22 -59 -51 -123 -51c-113 0 -176 75 -176 189v241h98v-232c0 -66 31 -116 95 -116c73 0 106 56 106 104zM112 552c0 29 26 55 54 55
c29 0 55 -26 55 -55s-26 -55 -55 -55c-28 0 -54 26 -54 55zM283 552c0 29 25 55 53 55c29 0 54 -26 54 -55s-25 -55 -54 -55c-28 0 -53 26 -53 55z" />
    <glyph glyph-name="g" unicode="g" horiz-adv-x="521" 
d="M461 420v-392c0 -120 -71 -207 -210 -207c-104 0 -154 49 -168 65l49 62c8 -9 48 -49 117 -49c74 0 115 44 114 126v29h-4s-29 -64 -132 -64c-109 0 -193 89 -193 220c0 134 85 220 196 220c113 0 146 -77 146 -77h5l14 67h66zM369 210c0 86 -52 139 -119 139
c-68 0 -117 -58 -117 -139c0 -82 49 -139 117 -139c67 0 119 52 119 139z" />
    <glyph glyph-name="agrave" unicode="&#xe0;" 
d="M377 358h4l15 62h66v-420h-66l-15 62h-4s-36 -72 -146 -72c-111 0 -196 86 -196 220c0 131 84 220 194 220c112 0 148 -72 148 -72zM370 210c0 87 -52 139 -119 139c-68 0 -117 -57 -117 -139c0 -81 49 -139 117 -139c67 0 119 53 119 139zM221 497l-91 134l113 17
l45 -151h-67z" />
    </font>
</defs>
</svg>
